#TITLE:Daisuke;
#SUBTITLE:;
#ARTIST:Y&Co;
#TITLETRANSLIT:;
#SUBTITLETRANSLIT:;
#ARTISTTRANSLIT:;
#CREDIT:;
#BANNER:daisuke-bn.png;
#BACKGROUND:daisuke-bg.png;
#LYRICSPATH:;
#CDTITLE:!boombatitle.png;
#MUSIC:YCo. - Daisuke.mp3;
#OFFSET:-1.060;
#SAMPLESTART:50.650;
#SAMPLELENGTH:12.000;
#SELECTABLE:YES;
#BPMS:0.000=157.000;
#STOPS:;
#BGCHANGES:;
// cache tags:
#FIRSTBEAT:0.000;
#LASTBEAT:323.750;
#SONGFILENAME:Songs/Music V.I.P ^_^/Daisuke [Boomba]/Daisuke.sm;
#HASMUSIC:1;
#HASBANNER:1;
#MUSICLENGTH:127.794;
// end cache tags

//---------------dance-single - ----------------
#NOTES:
     dance-single:
     :
     Challenge:
     11:
     1.000,1.000,1.000,0.391,0.876,816.000,260.000,50.000,0.000,0.000:  // measure 1
1001
0000
0010
0000
1100
0000
1000
0010
0100
0001
1000
0000
0011
0000
1000
0100
,  // measure 2
0010
0000
0001
0000
1100
0000
0001
1000
0001
0010
0100
0000
1001
0000
0010
0100
,  // measure 3
0001
0000
1000
0000
0110
0000
0001
0010
0001
0100
0010
0000
1001
0000
1000
0100
,  // measure 4
0010
0000
0100
0000
1010
0000
1000
0001
0100
0001
0010
0001
0100
0010
1000
0001
,  // measure 5
0100
0000
0100
0010
1001
0000
1000
0100
0010
0001
1000
0000
1100
0000
0001
0010
,  // measure 6
0100
0000
1000
0000
1010
0000
0100
0001
0010
0001
0100
0010
1001
0000
1000
0000
,  // measure 7
1001
0010
0001
1000
0001
0010
0001
1000
0100
1000
0010
0100
0001
0100
0010
0100
,  // measure 8
2002
0000
0000
0000
0000
0000
0000
0000
0000
0000
0000
0000
0000
0000
0000
3003
,  // measure 9
1001
0010
0100
0001
0010
0001
0100
0000
0010
1000
0001
0010
0100
1000
0010
0100
,  // measure 10
0001
0100
0010
1000
0100
0010
0001
0000
1000
0001
0010
0100
1000
0010
0100
0001
,  // measure 11
0010
0001
0100
0010
1000
0100
0010
0000
0001
1000
0001
0010
0100
1000
0100
0010
,  // measure 12
0001
1000
0100
0010
0001
0000
1000
0100
0010
0001
1000
0000
1000
0100
0010
0001
,  // measure 13
0110
0001
1000
0100
0010
0001
1000
0000
0100
1000
0010
0100
0001
0010
0001
1000
,  // measure 14
0010
0100
0001
0010
0100
1000
0010
0000
0100
0001
0010
0001
0100
0010
1000
0001
,  // measure 15
0010
0100
1000
0010
0100
0001
0100
0000
0010
1000
0100
0010
0001
1000
0100
1000
,  // measure 16
0010
0100
0001
1000
0010
0000
1000
0001
0100
0010
1000
0000
0100
0001
1000
0010
,  // measure 17
0101
1010
1001
0011
1100
1010
0001
0110
,  // measure 18
0001
1100
0011
1100
1010
0101
0010
1001
,  // measure 19
0011
0000
1001
0000
0011
0000
0001
0110
0000
0101
0000
0001
0110
0000
1000
0000
,  // measure 20
2200
3300
2200
3300
1001
1001
0000
1001
,  // measure 21
1010
0011
0110
1001
1010
0101
0001
1100
,  // measure 22
0001
0110
1010
1001
0110
1001
0100
1010
,  // measure 23
0011
0000
1001
0000
0011
0000
0001
0110
0000
0101
0000
0001
0110
0000
1000
0000
,  // measure 24
0022
0000
0033
0000
0022
0000
0033
0000
1100
0000
1100
0000
0000
0000
1000
0010
,  // measure 25
0101
0011
0101
1010
1100
0011
1100
1010
,  // measure 26
0001
0000
0101
0000
0011
0000
2001
3000
0200
0300
0020
0030
2000
3000
0002
0003
,  // measure 27
0200
0300
1010
0000
0101
0000
0011
0000
0110
0000
1001
0000
1100
0000
0011
0000
,  // measure 28
0100
0000
1010
0000
1001
0000
0110
0000
0202
0000
0303
0000
2002
3003
0110
0000
,  // measure 29
0001
1100
0011
1100
1001
0100
0110
1001
,  // measure 30
0010
0101
0011
0110
1001
0100
1000
0110
,  // measure 31
0100
0011
0100
1001
0001
1100
1000
1010
,  // measure 32
0100
0001
0010
0001
0100
0010
1000
0001
0100
0010
1000
0100
0010
0001
1000
0100
,  // measure 33
2002
0000
0000
0000
0000
0000
0000
3003
1000
0000
0010
0000
0100
0000
0001
0000
,  // measure 34
1001
0000
0011
0000
1001
1100
1010
1001
,  // measure 35
0010
0101
0010
1000
1100
0110
0011
0101
,  // measure 36
0110
0001
0110
0001
1100
0011
1100
1010
,  // measure 37
0001
0000
1010
0000
0101
0000
0011
0000
0001
0000
1010
0000
1001
0000
0100
0010
,  // measure 38
1001
0000
1001
0000
0011
1100
1010
0101
,  // measure 39
0010
0101
0010
1001
0000
1010
0110
0202
,  // measure 40
0303
1010
0110
0202
0303
1100
0110
0022
,  // measure 41
0033
1100
0110
0022
0033
1100
0011
0101
,  // measure 42
0010
1001
0010
1100
0001
1010
1000
1001
,  // measure 43
0100
0000
0101
0000
0001
0000
0011
0000
1100
0000
1000
0100
0010
0001
1000
0100
,  // measure 44
2002
0000
0000
0000
0000
0000
0000
3003
1000
0000
0010
0000
0100
0000
0001
0000
,  // measure 45
1001
0100
0010
0001
1000
0100
1000
0000
0010
0100
0001
0010
0100
1000
0010
0100
,  // measure 46
0001
0100
0010
1000
0100
0010
0001
0000
1000
0001
0100
0001
0010
0100
1000
0010
,  // measure 47
0100
0001
0100
0010
1000
0100
0010
0000
0001
1000
0010
0100
0001
0100
0010
0100
,  // measure 48
0001
1000
0010
1000
0001
0000
1000
0010
1000
0001
1000
0000
0010
1000
0001
1000
,  // measure 49
0110
0001
1000
0010
0100
0001
0010
0000
0001
0100
0010
1000
0100
0010
0001
1000
,  // measure 50
0100
1000
0001
0010
0100
1000
0010
0000
0100
0001
0100
0010
1000
0100
0010
0001
,  // measure 51
1000
0100
1000
0010
0100
0001
0010
0000
0001
0010
0100
1000
0001
1000
0100
1000
,  // measure 52
0010
0100
0001
1000
0010
0000
1000
0010
0100
0001
1000
0000
0100
0010
0100
0001
,  // measure 53
1100
0011
1100
1010
0001
0110
0001
1100
,  // measure 54
0001
1100
0011
1100
1010
0101
0011
0101
,  // measure 55
0110
1100
1001
0101
0100
1100
0001
0110
,  // measure 56
0001
1100
1001
0110
2002
3003
2020
3030
,  // measure 57
0101
0100
0110
1001
1100
0001
0110
1001
,  // measure 58
0100
1001
0110
1001
1100
1010
0001
0110
,  // measure 59
0001
0110
1001
1100
0001
1100
0001
1100
,  // measure 60
1000
0100
0010
0001
1000
0100
1000
0001
0010
0100
1000
0010
0100
0001
0010
0100
,  // measure 61
2002
0000
0000
0000
0000
0000
0000
3003
1000
0000
0001
0000
0010
0000
0001
0000
,  // measure 62
1100
0000
1010
0000
1010
0110
1001
0011
,  // measure 63
0100
1001
0100
1000
1010
0101
0011
0101
,  // measure 64
1010
0001
1001
0100
1001
0110
1001
1010
,  // measure 65
0001
0000
0101
0000
0011
0000
0101
0000
0010
0000
1001
0000
1100
0000
0010
0001
,  // measure 66
1100
0000
1100
0000
1010
0101
0011
0101
,  // measure 67
0010
0101
0010
1100
0010
1100
0110
0022
,  // measure 68
0033
1100
0110
0022
0033
1100
0110
0202
,  // measure 69
0303
1100
0110
0202
0303
1010
0101
0011
,  // measure 70
1000
0011
0100
1001
1000
1010
0001
0110
,  // measure 71
0101
0000
1010
0000
1001
0000
1000
0100
0010
0100
1001
0010
0100
1000
0001
0010
,  // measure 72
2002
0000
0000
0000
0000
0000
0000
3003
0001
0000
0100
0000
0010
0000
1000
0000
,  // measure 73
1001
0100
0010
0001
1000
0100
1000
0000
0001
0010
0100
1000
0010
0100
0001
0100
,  // measure 74
0010
1000
0100
0010
0001
1000
0001
0000
1000
0001
0010
0100
1000
0010
0100
0001
,  // measure 75
0100
0010
1000
0100
0010
0001
1000
0000
0001
0100
0010
0100
0001
0010
0001
0100
,  // measure 76
0010
1000
0001
0010
0100
0000
1000
0001
0010
0100
1000
0000
0001
0010
0100
1000
,  // measure 77
0011
0100
0010
0100
0001
1000
0010
0000
1000
0100
0010
0001
1000
0010
0100
0001
,  // measure 78
0010
0100
1000
0010
0100
0001
0100
0000
0010
1000
0100
0010
0001
1000
0100
1000
,  // measure 79
0010
0100
0001
0010
0001
0100
0010
0000
0100
0001
0010
0001
1000
0010
1000
0001
,  // measure 80
1100
0010
1000
0001
0100
0000
0011
1000
0001
0100
0010
0000
1100
0001
0100
0010
,  // measure 81
2002
0000
0000
0000
0000
0000
0000
0000
0000
0000
0000
0000
0000
0000
0000
3003
;
